Skocz do zawartości
aspireporn

Gloryhole / Bukkake

Recommended Posts

Venera_Maxima_1st_Bukkake 720p

 

spacer.png

 

Specyfikacja techniczna:

General
Complete name :Venera_Maxima_1st_Bukkake.mp4
Format : MPEG-4
Format profile : Base Media
Codec ID : isom (isom/iso2/avc1/mp41)
File size : 695 MiB
Duration : 51 min 18 s
Overall bit rate : 1 893 kb/s
Writing application : Lavf58.0.100

Video
ID : 1
Format : AVC
Format/Info : Advanced Video Codec
Format profile : High@L3.1
Format settings : CABAC / 4 Ref Frames
Format settings, CABAC : Yes
Format settings, Reference : 4 frames
Codec ID : avc1
Codec ID/Info : Advanced Video Coding
Duration : 51 min 18 s
Bit rate : 1 759 kb/s
Width : 1 280 pixels
Height : 720 pixels
Display aspect ratio : 16:9
Frame rate mode : Constant
Frame rate : 25.000 FPS
Color space : YUV
Chroma subsampling : 4:2:0
Bit depth : 8 bits
Scan type : Progressive
Bits/(Pixel*Frame) : 0.076
Stream size : 645 MiB (93%)
Writing library : x264 core 152 r19 ba24899

Audio
ID : 2
Format : AAC LC
Format/Info : Advanced Audio Codec Low Complexity
Codec ID : mp4a-40-2
Duration : 51 min 18 s
Bit rate mode : Constant
Bit rate : 128 kb/s
Channel(s) : 2 channels
Channel layout : L R
Sampling rate : 48.0 kHz
Frame rate : 46.875 FPS (1024 SPF)
Compression mode : Lossy
Stream size : 47.1 MiB (7%)
Default : Yes
Alternate group : 1

 

spacer.png

 

 

Ukryta treść widoczna dla zalogowanych użytkowników

 

Udostępnij ten post


Link to post
Share on other sites

Gloryhole Swallow B220-2 1st Visit (07 Aug 2020)

 

spacer.png

 

Specyfikacja techniczna:

 

Complete name : C:Gloryhole Swallow B220-2 1st Visit (07 Aug 2020).mp4
Format : MPEG-4
Format profile : Base Media
Codec ID : isom (isom/iso2/avc1/mp41)
File size : 1.37 GiB
Duration : 1 h 5 min
Overall bit rate : 2 980 kb/s
Writing application : Lavf58.30.100

Video
ID : 1
Format : AVC
Format/Info : Advanced Video Codec
Format profile : High@L3.1
Format settings : CABAC / 4 Ref Frames
Format settings, CABAC : Yes
Format settings, Reference : 4 frames
Codec ID : avc1
Codec ID/Info : Advanced Video Coding
Duration : 1 h 5 min
Bit rate : 2 870 kb/s
Width : 1 280 pixels
Height : 720 pixels
Display aspect ratio : 16:9
Frame rate mode : Constant
Frame rate : 30.000 FPS
Color space : YUV
Chroma subsampling : 4:2:0
Bit depth : 8 bits
Scan type : Progressive
Bits/(Pixel*Frame) : 0.104
Stream size : 1.32 GiB (96%)

Audio
ID : 2
Format : AAC LC
Format/Info : Advanced Audio Codec Low Complexity
Codec ID : mp4a-40-2
Duration : 1 h 5 min
Bit rate mode : Constant
Bit rate : 101 kb/s
Channel(s) : 2 channels
Channel layout : L R
Sampling rate : 44.1 kHz
Frame rate : 43.066 FPS (1024 SPF)
Compression mode : Lossy
Stream size : 47.7 MiB (3%)
Default : Yes
Alternate group : 1

 

Screen:

spacer.png

 

Ukryta treść widoczna dla zalogowanych użytkowników


 

Ukryta treść widoczna dla zalogowanych użytkowników

 

Udostępnij ten post


Link to post
Share on other sites
Autor tematu Napisano (edytowane)

Gloryhole Swallow B227 2nd Visit (14 Aug 2020)



as.jpg

 

Dane techniczne:

Cytat

General
Complete name : C:Gloryhole Swallow B227 2nd Visit (14 Aug 2020) 2.mp4
Format : MPEG-4
Format profile : Base Media
Codec ID : isom (isom/iso2/avc1/mp41)
File size : 1.19 GiB
Duration : 1 h 4 min
Overall bit rate : 2 667 kb/s
Writing application : Lavf58.30.100

Video
ID : 1
Format : AVC
Format/Info : Advanced Video Codec
Format profile : High@L3.1
Format settings : CABAC / 4 Ref Frames
Format settings, CABAC : Yes
Format settings, Reference : 4 frames
Codec ID : avc1
Codec ID/Info : Advanced Video Coding
Duration : 1 h 4 min
Bit rate : 2 545 kb/s
Width : 1 280 pixels
Height : 720 pixels
Display aspect ratio : 16:9
Frame rate mode : Constant
Frame rate : 30.000 FPS
Color space : YUV
Chroma subsampling : 4:2:0
Bit depth : 8 bits
Scan type : Progressive
Bits/(Pixel*Frame) : 0.092
Stream size : 1.14 GiB (95%)
Writing library : x264 core 157 r2969 d4099dd

Audio
ID : 2
Format : AAC LC
Format/Info : Advanced Audio Codec Low Complexity
Codec ID : mp4a-40-2
Duration : 1 h 4 min
Duration_LastFrame : -14 ms
Bit rate mode : Constant
Bit rate : 113 kb/s
Channel(s) : 2 channels
Channel layout : L R
Sampling rate : 44.1 kHz
Frame rate : 43.066 FPS (1024 SPF)
Compression mode : Lossy
Stream size : 51.8 MiB (4%)
Default : Yes
Alternate group : 1
 

 
 
 

Gloryhole-Swallow-B227-2nd-Visit-14-Aug-

Ukryta treść widoczna dla zalogowanych użytkowników

Ukryta treść widoczna dla zalogowanych użytkowników

 

Edytowane przez aspireporn

Udostępnij ten post


Link to post
Share on other sites

Gloryhole Swallow B234-2 1st Visit (21 Aug 2020) 720p

ss.jpg

Dane techniczne:

General


Complete name : C:\Gloryhole Swallow B234-2 1st Visit (21 Aug 2020) 3.mp4
Format : MPEG-4
Format profile : Base Media
Codec ID : isom (isom/iso2/avc1/mp41)
File size : 1.00 GiB
Duration : 45 min 50 s
Overall bit rate : 3 125 kb/s
Writing application : Lavf58.30.100

Video
ID : 1
Format : AVC
Format/Info : Advanced Video Codec
Format profile : High@L3.1
Format settings : CABAC / 4 Ref Frames
Format settings, CABAC : Yes
Format settings, Reference : 4 frames
Codec ID : avc1
Codec ID/Info : Advanced Video Coding
Duration : 45 min 50 s
Bit rate : 3 014 kb/s
Width : 1 280 pixels
Height : 720 pixels
Display aspect ratio : 16:9
Frame rate mode : Constant
Frame rate : 30.000 FPS
Color space : YUV
Chroma subsampling : 4:2:0
Bit depth : 8 bits
Scan type : Progressive
Bits/(Pixel*Frame) : 0.109
Stream size : 988 MiB (96%)
Writing library : x264 core 157 r2969 d4099dd

Audio
ID : 2
Format : AAC LC
Format/Info : Advanced Audio Codec Low Complexity
Codec ID : mp4a-40-2
Duration : 45 min 50 s
Duration_LastFrame : -8 ms
Bit rate mode : Constant
Bit rate : 102 kb/s
Channel(s) : 2 channels
Channel layout : L R
Sampling rate : 44.1 kHz
Frame rate : 43.066 FPS (1024 SPF)
Compression mode : Lossy
Stream size : 33.5 MiB (3%)
Default : Yes
Alternate group : 1

Gloryhole-Swallow-B234-2-1st-Visit-21-Au

Ukryta treść widoczna dla zalogowanych użytkowników


Ukryta treść widoczna dla zalogowanych użytkowników

Udostępnij ten post


Link to post
Share on other sites

Gloryhole Swallow B241 2nd Visit (28 Aug 2020) 720p

as.jpg

Dane techniczne:

General


Complete name : C:\Gloryhole Swallow B241 2nd Visit (28 Aug 2020) 4.mp4
Format : MPEG-4
Format profile : Base Media
Codec ID : isom (isom/iso2/avc1/mp41)
File size : 1.39 GiB
Duration : 1 h 9 min
Overall bit rate : 2 889 kb/s
Writing application : Lavf58.30.100

Video
ID : 1
Format : AVC
Format/Info : Advanced Video Codec
Format profile : High@L3.1
Format settings : CABAC / 4 Ref Frames
Format settings, CABAC : Yes
Format settings, Reference : 4 frames
Codec ID : avc1
Codec ID/Info : Advanced Video Coding
Duration : 1 h 9 min
Bit rate : 2 779 kb/s
Width : 1 280 pixels
Height : 720 pixels
Display aspect ratio : 16:9
Frame rate mode : Constant
Frame rate : 30.000 FPS
Color space : YUV
Chroma subsampling : 4:2:0
Bit depth : 8 bits
Scan type : Progressive
Bits/(Pixel*Frame) : 0.101
Stream size : 1.34 GiB (96%)
Writing library : x264 core 157 r2969 d4099dd

Audio
ID : 2
Format : AAC LC
Format/Info : Advanced Audio Codec Low Complexity
Codec ID : mp4a-40-2
Duration : 1 h 9 min
Duration_LastFrame : -16 ms
Bit rate mode : Constant
Bit rate : 101 kb/s
Channel(s) : 2 channels
Channel layout : L R
Sampling rate : 44.1 kHz
Frame rate : 43.066 FPS (1024 SPF)
Compression mode : Lossy
Stream size : 50.0 MiB (4%)
Default : Yes
Alternate group : 1

at.jpg

Ukryta treść widoczna dla zalogowanych użytkowników


Ukryta treść widoczna dla zalogowanych użytkowników

Udostępnij ten post


Link to post
Share on other sites

Isabel_Dark_1st_Bukkake (2020) 720p

12.jpg

Dane techniczne:

General


Complete name : C:\Isabel_Dark_1st_Bukkake.mp4
Format : MPEG-4
Format profile : Base Media
Codec ID : isom (isom/iso2/avc1/mp41)
File size : 953 MiB
Duration : 48 min 25 s
Overall bit rate mode : Variable
Overall bit rate : 2 751 kb/s
Writing application : Lavf58.30.100

Video
ID : 1
Format : AVC
Format/Info : Advanced Video Codec
Format profile : High@L3.1
Format settings : CABAC / 4 Ref Frames
Format settings, CABAC : Yes
Format settings, Reference : 4 frames
Codec ID : avc1
Codec ID/Info : Advanced Video Coding
Duration : 48 min 25 s
Bit rate : 2 624 kb/s
Width : 1 280 pixels
Height : 720 pixels
Display aspect ratio : 16:9
Frame rate mode : Constant
Frame rate : 25.000 FPS
Color space : YUV
Chroma subsampling : 4:2:0
Bit depth : 8 bits
Scan type : Progressive
Bits/(Pixel*Frame) : 0.114
Stream size : 909 MiB (95%)
Writing library : x264 core 157 r2969 d4099dd

Audio
ID : 2
Format : AAC LC
Format/Info : Advanced Audio Codec Low Complexity
Codec ID : mp4a-40-2
Duration : 48 min 25 s
Duration_LastFrame : -7 ms
Bit rate mode : Variable
Bit rate : 120 kb/s
Maximum bit rate : 128 kb/s
Channel(s) : 2 channels
Channel layout : L R
Sampling rate : 44.1 kHz
Frame rate : 43.066 FPS (1024 SPF)
Compression mode : Lossy
Stream size : 41.6 MiB (4%)
Default : Yes
Alternate group : 1

Isabel-Dark-1st-Bukkake-mp4-thumbs.jpg

Ukryta treść widoczna dla zalogowanych użytkowników


Ukryta treść widoczna dla zalogowanych użytkowników

Udostępnij ten post


Link to post
Share on other sites

Gloryhole Swallow B248 1st Visit (04 Sep 2020) 720p

wa.jpg

Dane techniczne:



Format : MPEG-4 at 4.493 Kb/s
Length : 2.34 GB for 1h 14min

Video #0 : AVC at 4.385 Kb/s
Aspect : 1280 x 720 30.000 fps

Audio #0 : AAC at 99.2 Kb/s
Infos : 2 kanały, 44.1 KHz

Gloryhole-Swallow-B248-1st-Visit-04-Sep-

Ukryta treść widoczna dla zalogowanych użytkowników

Udostępnij ten post


Link to post
Share on other sites

Gloryhole Swallow B255 3rd Visit (11 Sep 2020) 720p

rr.jpg

Dane techniczne:


Format : MPEG-4 at 4.493 Kb/s
Length : 1.19 GB for 57min 35s

Video #0 : AVC at 2.847 Kb/s
Aspect : 1280 x 720 30.000 fps

Audio #0 : AAC at 101 Kb/s
Infos : 2 kanały, 44.1 KHz

Gloryhole-Swallow-B255-3rd-Visit-11-Sep-

Ukryta treść widoczna dla zalogowanych użytkowników


 

Udostępnij ten post


Link to post
Share on other sites

Gloryhole Swallow B262-2 1st visit (18 Sep 2020) 720p

jgujyh.jpg

Dane techniczne:


Format : MPEG-4 at 4.493 Kb/s
Length : 1.84 GB for 1h 20min

Video #0 : AVC at 3.167 Kb/s
Aspect : 1280 x 720 30.000 fps

Audio #0 : AAC at 103 Kb/s
Infos : 2 kanały, 44.1 KHz

Gloryhole-Swallow-B262-2-1st-visit-18-Se

Ukryta treść widoczna dla zalogowanych użytkowników


 

Udostępnij ten post


Link to post
Share on other sites

Gloryhole Swallow B269 Pandora 3rd Visit (25 Sep 2020) 720p


dh.jpg

Dane techniczne:


Format : MPEG-4 at 4.493 Kb/s
Length : 1.28 GB for 49min 4s

Video #0 : AVC at 3 629 kb/s
Aspect : 1280 x 720 30.000 fps

Audio #0 : AAC at 100 Kb/s
Infos : 2 kanały, 44.1 KHz

Gloryhole-Swallow-B269-Pandora-3rd-Visit

Ukryta treść widoczna dla zalogowanych użytkowników


 

Udostępnij ten post


Link to post
Share on other sites

GGG Fick mich, dann schluck ich!


FICK.jpg

Dane techniczne:


Format : MPEG-4 at 1.720 Kb/s
Length : 990 MB for 1h 20min

Video #0 : AVC at 1 619 kb/s
Aspect : 640 x 480 25.000 fps

Audio #0 : AAC at 96 Kb/s
Infos : 2 kanały, 44.1 KHz

GGG-Fick-mich-dann-schluck-ich-10-mp4-th

Ukryta treść widoczna dla zalogowanych użytkowników


 

Udostępnij ten post


Link to post
Share on other sites

Gloryhole Swallow B199 Tabor 4th Visit (17 July 2020) 720p

okl.jpg

Dane techniczne:


Format : MPEG-4 at 3.409 Kb/s
Length : 1.38 GB for 58min 7s

Video #0 : AVC at 3.272 kb/s
Aspect : 1280 x 720 30.000 fps

Audio #0 : AAC at 128 Kb/s
Infos : 2 kanały, 44.1 KHz

Gloryhole-Swallow-B199-Tabor-4th-Visit-1

Ukryta treść widoczna dla zalogowanych użytkowników


 

Udostępnij ten post


Link to post
Share on other sites

Gloryhole Swallow B192 1st Visit (10 July 2020) 720p

okl.jpg

Dane techniczne:


Format : MPEG-4 at 3.025 Kb/s
Length : 971 MB for 44min 54s

Video #0 : AVC at 2.917 kb/s
Aspect : 1280 x 720 30.000 fps

Audio #0 : AAC at 99.2 Kb/s
Infos : 2 kanały, 44.1 KHz

Gloryhole-Swallow-B192-1st-Visit-10-July

Ukryta treść widoczna dla zalogowanych użytkowników


 

Udostępnij ten post


Link to post
Share on other sites

Gloryhole Remy LaCroix - Remy LaCroix Takes On 4 Dicks In Gloryhole 720p

oklo.jpg

Dane techniczne:


Format : MPEG-4 at 3.072 Kb/s
Length : 654 MB for 29min 46s

Video #0 : AVC at 3.000 kb/s
Aspect : 1280 x 720 29.970 fps

Audio #0 : AAC at 81.0 Kb/s
Infos : 2 kanały, 44.1 KHz

Gloryhole-Remy-La-Croix-Remy-La-Croix-Ta

Ukryta treść widoczna dla zalogowanych użytkowników


 

Udostępnij ten post


Link to post
Share on other sites

Gloryhole Secrets Kodi Jett 1st Visit 720p

rtr.jpg

Dane techniczne:


Format : MPEG-4 at 2.336 Kb/s
Length : 551 MB for 33min 0s

Video #0 : AVC at 2.199 kb/s
Aspect : 1280 x 720 29.970 fps

Audio #0 : AAC at 128 Kb/s
Infos : 2 kanały, 44.1 KHz

Gloryhole-Secrets-Kodi-Jett-1st-Visit-mp

Ukryta treść widoczna dla zalogowanych użytkowników


 

Udostępnij ten post


Link to post
Share on other sites

Gloryhole Secrets Gwen Vicious 1st Visit 720p

gfhgh.jpg

Dane techniczne:


Format : MPEG-4 at 2.581 Kb/s
Length : 713 MB for 38min 38s

Video #0 : AVC at 2.445 kb/s
Aspect : 1280 x 720 29.970 fps

Audio #0 : AAC at 128 Kb/s
Infos : 2 kanały, 44.1 KHz

Gloryhole-Secrets-Gwen-Vicious-1st-Visit

Ukryta treść widoczna dla zalogowanych użytkowników


 

Udostępnij ten post


Link to post
Share on other sites

Cum Covered Sexy 1080p

ok.jpg

Dane techniczne:


Format : MPEG-4 at 5.186 Kb/s
Length : 1.29 GB for 35min 33s

Video #0 : AVC at 5.000 kb/s
Aspect : 1920 x 1080 24.000 fps

Audio #0 : AAC at 192 Kb/s
Infos : 2 kanały, 44.1 KHz

Cum-Covered-Sexy-mp4-thumbs.jpg

Ukryta treść widoczna dla zalogowanych użytkowników


 

Udostępnij ten post


Link to post
Share on other sites
Autor tematu Napisano (edytowane)

Gloryhole Swallow B276 Parlia 4th Visit (02 Oct 2020) 720p

okkkk.jpg

Dane techniczne:

Cytat


Format : MPEG-4 at 3.953 Kb/s
Length : 1.89 GB for 1h 8min

Video #0 : AVC at 3.816 kb/s
Aspect : 1280 x 720 30.000 fps

Audio #0 : AAC at 128 Kb/s
Infos : 2 kanały, 44.1 KHz
 

 

Gloryhole-Swallow-B276-Parlia-4th-Visit-

Ukryta treść widoczna dla zalogowanych użytkowników


 

Edytowane przez aspireporn
poprawa danych technicznych

Udostępnij ten post


Link to post
Share on other sites

Gloryhole Swallow B283-2 1st Visit (09 Oct 2020) 720p

olk.jpg

Dane techniczne:


Format : MPEG-4 at 2.938 Kb/s
Length : 1.75 GB for 1h 25min

Video #0 : AVC at 2.828 kb/s
Aspect : 1280 x 720 30.000 fps

Audio #0 : AAC at 101 Kb/s
Infos : 2 kanały, 44.1 KHz

Gloryhole-Swallow-B283-2-1st-Visit-09-Oc

Ukryta treść widoczna dla zalogowanych użytkowników


 

Udostępnij ten post


Link to post
Share on other sites

Gloryhole Swallow B290 1st Visit (16 Oct 2020) 720p

bnhj.jpg

Dane techniczne:


Format : MPEG-4 at 4.323 Kb/s
Length : 1.60 GB for 52min 50s

Video #0 : AVC at 4.213 kb/s
Aspect : 1280 x 720 30.000 fps

Audio #0 : AAC at 101 Kb/s
Infos : 2 kanały, 44.1 KHz

Gloryhole-Swallow-B290-1st-Visit-16-Oct-

Ukryta treść widoczna dla zalogowanych użytkowników


 

Udostępnij ten post


Link to post
Share on other sites

Gloryhole Swallow B297 Kaitlyn Katsaros 3rd Visit (23 Oct  2020) 720p

gj.jpg

Dane techniczne:


Format : MPEG-4 at 3.159 Kb/s
Length : 1.37 GB for 1h 2min

Video #0 : AVC at 3.049 kb/s
Aspect : 1280 x 720 30.000 fps

Audio #0 : AAC at 101 Kb/s
Infos : 2 kanały, 44.1 KHz

Gloryhole-Swallow-B297-Kaitlyn-Katsaros-

Ukryta treść widoczna dla zalogowanych użytkowników


 

Udostępnij ten post


Link to post
Share on other sites

Gloryhole Swallow B303 1st Visit (29 Oct 2020) 720p

gyh7d.jpg

Dane techniczne:


Format : MPEG-4 at 2.494 Kb/s
Length : 439 MB for 24min 38s

Video #0 : AVC at 2.357 kb/s
Aspect : 1280 x 720 30.000 fps

Audio #0 : AAC at 128 Kb/s
Infos : 2 kanały, 44.1 KHz

Gloryhole-Swallow-B303-1st-Visit-29-Oct-

Ukryta treść widoczna dla zalogowanych użytkowników


 

Udostępnij ten post


Link to post
Share on other sites

Gloryhole Swallow B304 2nd Visit (30 Oct 2020) 720p

fhbhk.jpg

Dane techniczne:


Format : MPEG-4 at 3.013 Kb/s
Length : 1.09GB for 51min 52s

Video #0 : AVC at 2.903 kb/s
Aspect : 1280 x 720 30.000 fps

Audio #0 : AAC at 101 Kb/s
Infos : 2 kanały, 44.1 KHz

Gloryhole-Swallow-B304-2nd-Visit-30-Oct-

Ukryta treść widoczna dla zalogowanych użytkowników


 

Udostępnij ten post


Link to post
Share on other sites

Dogfart - CumBang Teanna Trump (1080p/60FPS)

fjhgj.jpg

Dane techniczne:


Format: Mov at 5 161 Kbp/s
Length: 1.03 GiB for 0h 28min 29sec

Video: AVC at 4 957 Kbp/s
Aspect: 1920x1080 at 60.000 fps

Audio: AAC at 192 Kbp/s
Info: 2 channels stereo, 44.10 KHz

Dogfart-Cum-Bang-Teanna-Trump-1080p-mp4-

Ukryta treść widoczna dla zalogowanych użytkowników


 

Udostępnij ten post


Link to post
Share on other sites

Canela Skin Surrounded By Huge Dicks 1080p

oll.jpg

Dane techniczne:


Format: Mov at 5 194 Kbp/s
Length: 1.24 GiB for 0h 34min 09sec

Video: AVC at 4 996 Kbp/s
Aspect: 1920x1080 at 24.000 fps

Audio: AAC at 192 Kbp/s
Info: 2 channels stereo, 44.10 KHz

Canela-Skin-Surrounded-By-Huge-Dicks-108

Ukryta treść widoczna dla zalogowanych użytkowników


 

Udostępnij ten post


Link to post
Share on other sites

Jeśli chcesz dodać odpowiedź, zaloguj się lub zarejestruj nowe konto

Jedynie zarejestrowani użytkownicy mogą komentować zawartość tej strony.

Zarejestruj nowe konto

Załóż nowe konto. To bardzo proste!

Zarejestruj się

Zaloguj się

Posiadasz już konto? Zaloguj się poniżej.

Zaloguj się

×
×
  • Dodaj nową pozycję...